business50
Paul Hardcastle - You're The One For Me / Daybreak / A.M. download free

Paul Hardcastle - You're The One For Me / Daybreak / A.M. download free

Genre: Electronic
Performer: Paul Hardcastle
Album: You're The One For Me / Daybreak / A.M.
Country: UK
Released: 1984
Style: Electro, Disco
MP3 version ZIP size: 1892 mb
FLAC version ZIP size: 1668 mb
WMA version ZIP size: 1506 mb
Rating: 4.3
Votes: 462
Other Formats: MOD AC3 DMF XM ASF ADX AIFF

On this page you can not listen to mp3 music free or download album or mp3 track to your PC, phone or tablet. All materials are provided for educational purposes. from authorized sellers. The album included the following session artists: Producer, Mixed By. Paul Hardcastle. Track list: Track title. Find mp3 free You're The One For Me, Daybreak, . A. You're The One For Me, Daybreak, . B. Instrumental Dub Version). mp3 player of Paul Hardcastle - You're The One For Me, Daybreak, . Paul Hardcastle - You're The One For Me, Daybreak, . Vocal Version) mp3.

Mix: (Vocal Version) 3:46. A1. You're The One For Me. Written-By – J. Eaves, J. Williams. Mixed By, Producer, Performer – Paul Hardcastle. Vocals – Kevin Henry. NOTE: Durations for this 7" are considerably overstated on the labels as 7:03 & 7:35. Actual Durations are 3:46 & 4:43 as in the Mix Headings above). Matrix, Runout (Etched runout Side A): TOCO - 1 - A1 BILBO TAPE ONE M. DAMONT. Matrix, Runout (Etched runout Side B): TOCO - 1 - B1 BILBO TAPE ONE M. Other Versions (5 of 10) View All. Cat.

Paul Louis Hardcastle is a British composer, musician, producer, songwriter, radio presenter and t. He is best known for his song "19", which went to number 1 in the UK Singles Chart in 1985. 1 Career Personal life. Hardcastle married Dolores Baker in 1985, and they have three children, including Maxine (born April 1986) and Paul Jr. (born August 1990). You're the One for Me – Daybreak – .

1. You're the One for Me/A. The Definitive Paul Hardcastle Contents.

AUDIO TITLE "You May Be Gone" PERFORMER "Paul Hardcastle" INDEX 00 04:28:10 INDEX 01 04:29:67 TRACK 03 AUDIO TITLE "Peace on Earth" PERFORMER "Paul Hardcastle" INDEX 00 11:17:28 INDEX 01 11:19:10 TRACK 04 AUDIO TITLE "Feel the Breeze" PERFORMER "Paul Hardcastle" INDEX 00 16:55:34 INDEX 01 16:57:16 TRACK 05 AUDIO TITLE.

Paul Hardcastle - You're The One For Me, . Paul Hardcastle - You're The One For Me, .

Tracklist

A You're The One For Me / Daybreak / A.M. (Vocal Version)
B You're The One For Me / Daybreak / A.M. (Instrumental Dub Version)

Notes

White label with no writing at all. Catalogue number in run out groove.

Barcode and Other Identifiers

  • Matrix / Runout: TOCO 1T

Other versions

Category Artist Title (Format) Label Category Country Year
TOCO 1 T, RLR 82 Paul Hardcastle You're The One For Me / Daybreak / A.M. ‎(12", Mixed, Orl) Total Control Records , Total Control Records TOCO 1 T, RLR 82 UK 1984
BMC 3612 Paul Hardcastle You're The One For Me / Daybreak / A.M. ‎(12", Mixed) BMC Records BMC 3612 Belgium 1984
BMC 1612 Paul Hardcastle You're The One For Me / Daybreak / A.M. ‎(7", Single, Mixed) BMC Records BMC 1612 Belgium 1984
TOCO 1 T, RLR 82 Paul Hardcastle You're The One For Me / Daybreak / A.M. ‎(12", Single, Mixed, Dam) Total Control Records , Total Control Records TOCO 1 T, RLR 82 UK 1984
1612 Paul Hardcastle You're The 1 For Me ‎(7", Single, Mixed) BMC, ARS 1612 Belgium Unknown
Video:

Performer: Aurélia
Genre: Electronic / Rock / Pop
Title: Daybreak to darkness
Released: 1990
Performer: Paul Hardcastle
Genre: Electronic
Title: 19 (Remixes)
Country: UK
Released: 2010
Performer: Paul Hardcastle
Genre: Electronic
Title: Eat Your Heart Out
Country: UK
Released: 1984
Performer: Paul Hardcastle
Genre: Electronic / Hip hop
Title: Zero One
Country: Europe
Released: 1985
Performer: Daybreak
Genre: World, Country and Folk
Title: The Anchor Holds
Released: 2001
Performer: The Gloomys
Genre: Pop
Title: Daybreak
Country: Italy
Released: 1968
Performer: Paul Hardcastle
Genre: Hip hop / Jazz / Funk and Soul
Title: Zero One
Country: Europe
Performer: Paul Hardcastle
Genre: Electronic
Title: Rain Forest / Forest Fire
Country: Germany
Released: 1985
Performer: Paul Hardcastle
Genre: Hip hop / Rock / Pop
Title: Don't Be Shy
Released: 1993
Performer: Paul Hardcastle
Genre: Electronic
Title: Paul Hardcastle
Country: UK
Released: 1985