business50
Brian Landrus - Mirage download free

Brian Landrus - Mirage download free

Genre: Jazz
Performer: Brian Landrus
Album: Mirage
Released: 2013
Style: Soul-Jazz
MP3 version ZIP size: 1832 mb
FLAC version ZIP size: 1798 mb
WMA version ZIP size: 1466 mb
Rating: 4.9
Votes: 648
Other Formats: MP4 AHX DTS MOD MP3 AA VOX

Brian Landrus Kaleidoscope - Mirage (2013), - . 0. Brian Landrus Kaleidoscope - Mirage (2013) /07 Reach. Brian Landrus Kaleidoscope - Mirage (2013) /11 Jade.

Brian Landrus (born September 14, 1978) is a jazz saxophonist, t, composer, producer, and educator. Brian Landrus was born in Reno, Nevada, where he began playing professionally at the age of 15. He earned a bachelor's degree in Music Performance at the University of Nevada, Reno. At the age of 18 he began performing on tenor and baritone saxophone with The Temptations, The Four Tops, The Coasters, The Drifters, and Martha Reeves

Brian Landrus: baritone saxophone, bass clarinet, bass flute, contra alto clarinet, bass saxophone; Nir Felder: guitar; Frank Carlberg: Rhodes, piano; Lonnie Plaxico: acoustic & electric bass; Rudy Royston: drums; Mark Feldman: violin; Joyce Hammann: violin; Judith Insell: viola; Jody Redhage: cello; Ryan Truesdell: conductor. eBooks & eLearning.

Brian Landrus uses a couple of choice moments on Mirage, his carefully sculptured new album, to clear an unobstructed path for his own sound. One track on which this happens, Kismet, is a three-minute improvisation on bass saxophone, a notoriously bulky instrument that Mr. Landrus handles with feathery grace. He sounds unhurried and thoughtful, deeply attuned to the horn and its register. Mirage revolves around the adaptable modern-jazz quintet that Mr. Landrus calls Kaleidoscope, with guitar and piano alongside bass and drums. And as was the case on Capsule, the album he released last year, his standout partners here are the guitarist Nir Felder, who glides through any solo opportunity he’s given, and the drummer Rudy Royston, who lays down grooves that feel at once sturdy and playfully supple. What’s different about Mirage is that Mr. Landrus has also incorporated a string quartet.

The Brian Landrus Kaleidoscope. The Brian Landrus Kaleidoscope. Fender Rhodes, Piano.

As noted before, low reed ace Brian Landrus is making a huge impression in a small amount of time. Still only four years removed from his de facto introduction as a leader Forward, each of the three albums he’s made since then (all released in 2011) were meaningful steps forward, and so is the fourth one coming out, Mirage.

FLAGS DCP INDEX 01 00:00:00 FILE "08 Mirage. wav" WAVE TRACK 08 AUDIO TITLE "Mirage" PERFORMER "The Brian Landrus Kaleidoscope" FLAGS DCP INDEX 01 00:00:00 FILE "09 I've Been Told. wav" WAVE TRACK 09 AUDIO TITLE "I've Been Told" PERFORMER "The Brian Landrus Kaleidoscope" FLAGS DCP INDEX 01 00:00:00 FILE "10 Three Words. AUDIOCHECKER v. beta (build 457) - by Dester - opdestermail. Brian Landrus Kaleidoscope - Mirage (2013) 01 - - 01 Arrival. flac - - CDDA (100%) 02 - - 02 Sammy. flac - - CDDA (100%) 03 - - 03 Don't Close Your Eyes. flac - - CDDA (100%) 04 - - 04 A New Da. lac - - CDDA (100%) 05

Tracklist

1 Arrival 5:22
2 Sammy 5:24
3 Don't Close Your Eyes 5:45
4 A New Day 1:44
5 The Thousands 5:45
6 Someday 5:08
7 Reach 1:37
8 Mirage 7:59
9 I've Been Told 5:51
10 Three Words 5:27
11 Jade 6:13
12 Kismet 3:03

Credits

  • Arranged By – Brian Landrus
  • Baritone Saxophone – Brian Landrus (tracks: All Tracks)
  • Bass Clarinet – Brian Landrus (tracks: All Tracks)
  • Bass Flute – Brian Landrus
  • Bass Saxophone – Brian Landrus (tracks: All Tracks)
  • Cello – Jody Redhage
  • Composed By – Brian Landrus
  • Conductor – Ryan Truesdell
  • Contra-Alto Clarinet – Brian Landrus
  • Drums – Rudy Royston (tracks: All Tracks)
  • Electric Bass – Lonnie Plaxico (tracks: All Tracks)
  • Electric Guitar – Nir Felder (tracks: All Tracks)
  • Mastered By – Alan Silverman
  • Mixed By – John Kilgore
  • Viola – Judith Insell
  • Violin – Joyce Hammann, Mark Feldman (tracks: All Tracks)

Barcode and Other Identifiers

  • Barcode: 884501875851
Performer: Poole
Genre: Rock / Pop
Title: Among Whom We Shine
Released: 1999
Performer: Brian Wilson
Genre: Pop / Screen and Stage
Title: In The Key Of Disney
Country: Germany
Released: 2011
Performer: Brian Finch
Genre: Rock / World, Country and Folk
Title: Hero Of Heroes
Released: 2002
Performer: Brian Not Brian
Genre: Electronic
Title: PHNCST207 - Le Lendemain
Released: 2015
Brian Eno - Dali's Car download free

Brian Eno - Dali's Car download mp3

Art Rock, Experimental
Performer: Brian Eno
Genre: Electronic / Rock
Title: Dali's Car
Country: US
Performer: Various
Genre: Jazz
Title: Fonè Jazz
Released: 1993
Performer: Figure 8
Genre: Rock
Title: Ex Nihilo
Released: 2019
Performer: Mazarin
Genre: Rock / Pop
Title: Chasing The Girl
Country: US
Released: 2000
Performer: Brian Setzer
Genre: Rock
Title: Live Nude Guitars
Country: Canada
Released: 1988
Performer: Brian Charles
Genre: Rock
Title: Sadderdaydreaming
Country: US
Released: 2002